Tu Jo Mila Video Song - K.K. - Salman Khan, Nawazuddin, Harshaali...

  • Category Music
  • Type Video
  • Language Hindi
  • Total size 27.7 MB
  • Uploaded By Aainul
  • Downloads 698
  • Last checked 4 hours ago
  • Date uploaded 3 years ago
  • Seeders 0
  • Leechers 0

Infohash : 09D04E1B55951716632B86ED248E997E601AB387

Seeding From High Speed Seedbox





Tu Jo Mila Video Song - K.K. - Salman Khan, Nawazuddin, Harshaali - Bajrangi Bhaijaan HD 720p - truHD HEVC



Source: WEB-DL

Source File Info:

General
Format : MPEG-4
Format profile : Base Media / Version 2
Codec ID : mp42
File size : 41.4 MiB
Duration : 2mn 33s
Overall bit rate mode : Variable
Overall bit rate : 2 259 Kbps
Encoded date : UTC 2015-07-30 05:22:07
Tagged date : UTC 2015-07-30 05:22:07


Video
ID : 1
Format : AVC
Format/Info : Advanced Video Codec
Format profile : [email protected]
Format settings, CABAC : Yes
Format settings, ReFrames : 1 frame
Codec ID : avc1
Codec ID/Info : Advanced Video Coding
Duration : 2mn 33s
Bit rate : 2 065 Kbps
Maximum bit rate : 6 741 Kbps
Width : 1 280 pixels
Height : 720 pixels
Display aspect ratio : 16:9
Frame rate mode : Constant
Frame rate : 25.000 fps
Color space : YUV
Chroma subsampling : 4:2:0
Bit depth : 8 bits
Scan type : Progressive
Bits/(Pixel*Frame) : 0.090
Stream size : 37.8 MiB (91%)
Tagged date : UTC 2015-07-30 05:22:08

Audio
ID : 2
Format : AAC
Format/Info : Advanced Audio Codec
Format profile : LC
Codec ID : 40
Duration : 2mn 33s
Bit rate mode : Variable
Bit rate : 192 Kbps
Maximum bit rate : 202 Kbps
Channel(s) : 2 channels
Channel positions : Front: L R
Sampling rate : 44.1 KHz
Compression mode : Lossy
Stream size : 3.52 MiB (8%)
Title : IsoMedia File Produced by Google, 5-11-2011
Language : English
Encoded date : UTC 2015-07-30 05:22:08
Tagged date : UTC 2015-07-30 05:22:08


Encoder: truHD HEVC Encoding Team



Encoded File Info:

General
Format : MPEG-4
Format profile : Base Media / Version 2
Codec ID : mp42
File size : 27.4 MiB
Duration : 2mn 33s
Overall bit rate mode : Variable
Overall bit rate : 1 496 Kbps
Encoded date : UTC 2036-02-06 06:28:16
Tagged date : UTC 2036-02-06 06:28:16
Writing application : HandBrake 0.10.2 2015060900

Video
ID : 1
Format : HEVC
Format/Info : High Efficiency Video Coding
Codec ID : hev1
Codec ID/Info : High Efficiency Video Coding
Duration : 2mn 33s
Bit rate : 1 330 Kbps
Width : 1 280 pixels
Height : 544 pixels
Display aspect ratio : 2.35:1
Frame rate mode : Constant
Frame rate : 25.000 fps
Bits/(Pixel*Frame) : 0.076
Stream size : 24.4 MiB (89%)
Encoded date : UTC 2036-02-06 06:28:16
Tagged date : UTC 2036-02-06 06:28:16

Audio
ID : 2
Format : AAC
Format/Info : Advanced Audio Codec
Format profile : LC
Codec ID : 40
Duration : 2mn 33s
Bit rate mode : Variable
Bit rate : 160 Kbps
Channel(s) : 2 channels
Channel positions : Front: L R
Sampling rate : 44.1 KHz
Compression mode : Lossy
Stream size : 2.94 MiB (11%)
Title : Stereo
Language : English
Encoded date : UTC 2036-02-06 06:28:16
Tagged date : UTC 2036-02-06 06:28:16


ScreenShots:



Like Us On FB And Request Accepted @ FB Page Link

KickAssTorrents: KAT Profile
GloTorrents: GloTorrent Profile
ThePirateBay: ThePirateBay Profile
1337x Torrents: 1337X Profile



Note: All Videos Uploaded By Me Are For Preview Purpose. If You Like IT, Google IT And Buy IT - Thanks



King Regards
truHD HEVC Team

Share Among Friends And Relatives:


Files:

  • Torrent Downloaded from Glodls.to.txt (0.2 KB)
  • Tu Jo Mila Video Song - K.K. - Salman Khan, Nawazuddin, Harshaali - Bajrangi Bhaijaan HD 720p - truHD HEVC.jpg (263.7 KB)
  • Tu Jo Mila Video Song - K.K. - Salman Khan, Nawazuddin, Harshaali - Bajrangi Bhaijaan HD 720p - truHD HEVC.mp4 (27.4 MB)

There are currently no comments. Feel free to leave one :)

Code:

  • http://tracker.pubt.net:2710/announce
  • http://tracker.aletorrenty.pl:2710/announce
  • udp://open.demonii.com:1337/announce
  • udp://tracker.openbittorrent.com:80/announce
  • udp://tracker4.piratux.com:6969/announce
  • udp://tracker.istole.it:80/announce
  • udp://tracker.publicbt.com:80/announce
  • udp://glotorrents.pw:6969/announce
  • udp://tracker.pubt.net:2710/announce
Sitemap(例大祭) [くろがね堂 (鳴海柚来)] 東方妖々夢 八雲・式神夜話 (東方Project) | Filmes Torrent X | Peter and the Wolf (1946) Caribbean | Danchigai | http://cdrqq.net/21503/pj-harvey-to-bring-you-my-love-1995