Sausage Party 2016 TSRip - x264 - [HQ-Mic Clean] - Zi$t-WWRG

  • Category Movies
  • Type h.264/x264
  • Language English
  • Total size 535.5 MB
  • Uploaded By Zist313
  • Downloads 1492
  • Last checked 10 hours ago
  • Date uploaded 2 years ago
  • Seeders 0
  • Leechers 0

Infohash : C7B954C27B66A38322203751235B16D578C4E915

Enhanced & resize video.cleaned the Mic audio to make it clear for the ears.











Video
ID                          : 1
Format                      : AVC
Format/Info                 : Advanced Video Codec
Format profile              : [email protected]
Format settings, CABAC      : Yes
Format settings, ReFrames   : 4 frames
Codec ID                    : avc1
Codec ID/Info               : Advanced Video Coding
Duration                    : 1h 21mn
Bit rate                    : 703 Kbps
Width                       : 720 pixels
Height                      : 320 pixels
Display aspect ratio        : 2.25:1
Frame rate mode             : Variable
Frame rate                  : 23.976 fps
Minimum frame rate          : 23.810 fps
Maximum frame rate          : 24.390 fps
Color space                 : YUV
Chroma subsampling          : 4:2:0
Bit depth                   : 8 bits
Scan type                   : Progressive
Bits/(Pixel*Frame)          : 0.127
Stream size                 : 412 MiB (78%)
Writing library             : x264 core 142 r2479 dd79a61


Audio
ID                          : 2
Format                      : AAC
Format/Info                 : Advanced Audio Codec
Format profile              : LC
Codec ID                    : 40
Duration                    : 1h 21mn
Bit rate mode               : Variable
Bit rate                    : 192 Kbps
Channel(s)                  : 2 channels
Channel positions           : Front: L R
Sampling rate               : 48.0 KHz
Compression mode            : Lossy
Stream size                 : 112 MiB (21%)
Title                       : Stereo / Stereo

Files:

  • WWRG Read Me!.txt (0.4 KB)
  • Sample.mp4 (7.5 MB)
  • Sausage Party 2016 HDTS - x264 - [HQ-Mic Clean] - Zi$t-WWRG.mp4 (528.0 MB)

There are currently no comments. Feel free to leave one :)

Code:

  • udp://torrent.gresille.org:80/announce
  • udp://torrent.gresille.org:80/announce
  • http://retracker.krs-ix.ru/announce
  • http://retracker.krs-ix.ru/announce.php
  • http://pow7.com:80/announce
  • http://tracker.tfile.me/announce
  • http://www.wareztorrent.com/announce
  • udp://tracker.leechers-paradise.org:6969/announce
  • udp://tracker.aletorrenty.pl:2710/announce
  • udp://tracker.eddie4.nl:6969/announce
  • udp://tracker.opentrackr.org:1337/announce
SitemapVICE News Tonight - Season 3 Episode 152 - August 28, 2018 7PM on HBO | Chanel Zero (2016) | Elle2016130 min +4 selecionar a marca | 鈴村あいり | Não Olhe para Trás (Danny Collins) 2015