Killing.Salazar.2016.720p.BluRay.x264-JustWatch[PRiME]

  • Category Movies
  • Type Divx/Xvid
  • Language English
  • Total size 4.4 GB
  • Uploaded By sub7
  • Downloads 29
  • Last checked 4 hours ago
  • Date uploaded 1 year ago
  • Seeders 4
  • Leechers 0

Killing Salazar

An elite team of DEA agents are assigned to protect a dangerous drug lord and take refuge in a luxury hotel while they await extraction. They soon find themselves at the center of an ambush as the drug lord's former associates launch an explosive assault on the hotel.

Infohash : 4ED1A5C262A1B6B022A03B4764985CE02E514BBB


Killing.Salazar.2016.720p.BluRay.x264-JustWatch[PRiME]

ImDb: http://www.imdb.com/title/tt4949290



Complete name : killing.salazar.2016.720p.bluray.x264-justwatch[PRiME].mkv
Format : Matroska
Format version : Version 2
File size : 4.37 GiB
Duration : 1 h 34 min
Overall bit rate : 6 583 kb/s
Writing application : mkvmerge v4.1.1 ('Bouncin' Back') built on Jul 3 2010 22:54:08
Writing library : libebml v1.0.0 + libmatroska v1.0

Video
ID : 1
Format : AVC
Format/Info : Advanced Video Codec
Format profile : [email protected]
Format settings, CABAC : Yes
Format settings, ReFrames : 5 frames
Codec ID : V_MPEG4/ISO/AVC
Duration : 1 h 34 min
Bit rate : 5 815 kb/s
Width : 1 280 pixels
Height : 720 pixels
Display aspect ratio : 16:9
Frame rate mode : Constant
Frame rate : 25.000 FPS
Color space : YUV
Chroma subsampling : 4:2:0
Bit depth : 8 bits
Scan type : Progressive
Bits/(Pixel*Frame) : 0.252
Stream size : 3.77 GiB (86%)
Writing library : x264 core 148 r2762 90a61ec
Encoding settings : cabac=1 / ref=5 / deblock=1:-2:-2 / analyse=0x3:0x113 / me=umh / subme=8 / psy=1 / psy_rd=1.00:0.00 / mixed_ref=1 / me_range=16 / chroma_me=1 / trellis=2 / 8x8dct=1 / cqm=0 / deadzone=21,11 / fast_pskip=1 / chroma_qp_offset=-2 / threads=12 / lookahead_threads=2 / sliced_threads=0 / nr=0 / decimate=1 / interlaced=0 / bluray_compat=0 / constrained_intra=0 / bframes=3 / b_pyramid=2 / b_adapt=2 / b_bias=0 / direct=3 / weightb=1 / open_gop=0 / weightp=2 / keyint=240 / keyint_min=24 / scenecut=40 / intra_refresh=0 / rc_lookahead=50 / rc=2pass / mbtree=1 / bitrate=5815 / ratetol=1.0 / qcomp=0.60 / qpmin=0 / qpmax=69 / qpstep=4 / cplxblur=20.0 / qblur=0.5 / ip_ratio=1.40 / aq=1:1.00
Language : English
Default : Yes
Forced : No

Audio
ID : 2
Format : DTS
Format/Info : Digital Theater Systems
Mode : 16
Format settings, Endianness : Big
Codec ID : A_DTS
Duration : 1 h 34 min
Bit rate mode : Constant
Bit rate : 768 kb/s
Channel(s) : 6 channels
Channel positions : Front: L C R, Side: L R, LFE
Sampling rate : 48.0 kHz
Frame rate : 93.750 FPS (512 spf)
Bit depth : 24 bits
Compression mode : Lossy
Stream size : 522 MiB (12%)
Language : English
Default : Yes
Forced : No

Menu
00:00:00.000 : en:00:00:00.000
00:06:59.800 : en:00:06:59.800
00:14:40.800 : en:00:14:40.800
00:21:09.520 : en:00:21:09.520
00:30:32.680 : en:00:30:32.680
00:40:34.040 : en:00:40:34.040
00:50:41.520 : en:00:50:41.520
01:01:05.760 : en:01:01:05.760
01:08:04.080 : en:01:08:04.080
01:14:46.600 : en:01:14:46.600
01:24:21.640 : en:01:24:21.640
01:31:12.120 : en:01:31:12.120




Click Image To View Full Size


Click To View Screenshot
Click To View Screenshot
Click To View Screenshot

Files:

Killing.Salazar.2016.720p.BluRay.x264-JustWatch[PRiME]
  • Please Support!! Read More!!!.txt (0.2 KB)
  • Sample
    • killing.salazar.2016.720p.bluray.x264-justwatch.sample[PRiME].mkv (41.9 MB)
  • Torrent Downloaded From climatewin.info.txt (0.1 KB)
  • Torrent Downloaded From ExtraTorrent.cc.txt (0.4 KB)
  • killing.salazar.2016.720p.bluray.x264-justwatch.jpg (6.0 KB)
  • killing.salazar.2016.720p.bluray.x264-justwatch[PRiME].mkv (4.4 GB)

There are currently no comments. Feel free to leave one :)

Code:

  • udp://tracker.ilibr.org:6969/announce
  • udp://tracker.coppersurfer.tk:6969
  • udp://tracker.ilibr.org:80/announce
  • udp://tracker.coppersurfer.tk:6969/announce
  • udp://tracker.leechers-paradise.org:6969/announce
  • udp://tracker.opentrackr.org:1337/announce
  • udp://tracker.zer0day.to:1337/announce
  • udp://ipv4.tracker.harry.lu:80/announce
  • udp://p4p.arenabg.ch:1337/announce
  • udp://p4p.arenabg.com:1337/announce
  • udp://9.rarbg.com:2710/announce
  • udp://9.rarbg.to:2710/announce
  • udp://9.rarbg.me:2710/announce
  • udp://explodie.org:6969/announce
  • udp://eddie4.nl:6969/announce
SitemapRaumschiff Enterprise - Star Trek: The Original Series | 15.05.0920:15 Uhr Velvet Assassin (Xbox360) Action0 / 03.679 Hits VID P2P DDL 0 Kommentare | 공지사항 EUR 76,71 - EUR 137,49 | King George and Queen Mary: The Royals Who Rescued The Monarchy | 5x4 season x episode Gotham