Sleepy Hollow 1999 720p Esub BluRay Dual Audio English Hindi GOPI...

  • Category Movies
  • Type Dubs/Dual Audio
  • Language English
  • Total size 810.1 MB
  • Uploaded By PENDUDESI
  • Downloads 1966
  • Last checked 9 hours ago
  • Date uploaded 1 year ago
  • Seeders 2
  • Leechers 3

Sleepy Hollow

DramaFantasyMysteryThriller

New York detective Ichabod Crane is sent to Sleepy Hollow to investigate a series of mysterious deaths in which the victims are found beheaded. But the locals believe the culprit to be none other than the ghost of the legendary Headless Horseman.

Infohash : B74A57929FD052BCEB623FB4B432BD12605D9B5D


Format : Matroska
Format version : Version 4 / Version 2
File size : 810 MiB
Duration : 1 h 45 min
Overall bit rate : 1 073 kb/s
Movie name : Sleepy Hollow 1999

Video
Format : AVC
Codec ID : V_MPEG4/ISO/AVC
Duration : 1 h 45 min
Bit rate : 900 kb/s
Width : 1 280 pixels
Height : 720 pixels
Display aspect ratio : 16:9
Frame rate mode : Constant
Frame rate : 23.976 (24000/1001) FPS
Stream size : 679 MiB (84%)
Writing library : x264

Audio #1
Format : AAC
Duration : 1 h 45 min
Bit rate : 87.0 kb/s
Channel(s) : 6 channels
Channel positions : Front: L C R, Side: L R, LFE
Sampling rate : 44.1 kHz
Frame rate : 43.066 FPS (1024 SPF)
Stream size : 65.6 MiB (8%)
Language : English

Audio #2
Format : AAC
Duration : 1 h 39 min
Bit rate : 88.8 kb/s
Channel(s) : 6 channels
Channel positions : Front: L C R, Side: L R, LFE
Sampling rate : 44.1 kHz
Frame rate : 43.066 FPS (1024 SPF)
Stream size : 63.4 MiB (8%)
Language : Hindi

Text
Language : English




Files:

  • Sleepy Hollow 1999 720p Esub BluRay Dual Audio English Hindi GOPISAHI.mkv (810.1 MB)

Comments

Code:

  • http://ipv4.tracker.harry.lu/announce
  • http://ipv4.tracker.harry.lu:80/announce
  • http://163.172.180.68:80/announce
  • http://t.nyaatracker.com/announce
  • http://tracker.devil-torrents.pl:80/announce
  • http://tracker.devil-torrents.pl/announce
  • http://open.kickasstracker.com/announce
  • http://163.172.180.68/announce
  • http://t.nyaatracker.com:80/announce
  • http://retracker.mgts.by:80/announce
  • http://45.33.11.224/announce
  • http://tracker.torrentyorg.pl:80/announce
  • http://pt.lax.mx:80/announce
  • udp://tracker.coppersurfer.tk:6969/announce
  • udp://tracker.pirateparty.gr:6969/announce
SitemapOne Piece 49 | MX Player Pro premium | Featured Download | Filmy z napisami | Jednostka (2006) The Unit