Flightplan 2005 x264 720p [Hindi + Eng] BluRay Exclusive By Maher

  • Category Movies
  • Type Dubs/Dual Audio
  • Language Hindi
  • Total size 799.3 MB
  • Uploaded By maher00
  • Downloads 2464
  • Last checked 9 months ago
  • Date uploaded 9 months ago
  • Seeders 16
  • Leechers 9

Flightplan

DramaMysteryThriller

A claustrophobic, Hitchcockian thriller. A bereaved woman and her daughter are flying home from Berlin to America. At 30,000 feet the child vanishes and nobody admits she was ever on that plane.

Infohash : B1A25E28E3A5DAD230D301BA580786884F413085

Flightplan 2005 x264 720p [Hindi + Eng] BluRay Exclusive By Maher



SEEDING WILL BE SLOW





-= If Someone Took Everything You Live For...
...How Far Would You Go To Get It Back? =-



-=Exclusive By -=MAHER=-







Format : Matroska
Format version : Version 4 / Version 2
File size : 784 MiB
Duration : 1 h 38 min
Overall bit rate : 1 118 kb/s
Encoded date : UTC 2018-04-05 17:50:04
Writing application : mkvmerge v9.7.1 ('Pandemonium') 64bit
Writing library : libebml v1.3.4 + libmatroska v1.4.5
Cover : Yes
Attachments : cover.jpg

Video
ID : 1
Format : AVC
Format/Info : Advanced Video Codec
Format profile : [email protected]
Format settings : CABAC / 5 Ref Frames
Format settings, CABAC : Yes
Format settings, RefFrames : 5 frames
Codec ID : V_MPEG4/ISO/AVC
Duration : 1 h 38 min
Bit rate : 837 kb/s
Width : 1 280 pixels
Height : 544 pixels
Display aspect ratio : 2.35:1
Frame rate mode : Constant
Frame rate : 23.976 (24000/1001) FPS
Color space : YUV
Chroma subsampling : 4:2:0
Bit depth : 8 bits
Scan type : Progressive
Bits/(Pixel*Frame) : 0.050
Stream size : 587 MiB (75%)
Writing library : x264 core 152 r2851 ba24899
Encoding settings : cabac=1 / ref=5 / deblock=1:-2:-2 / analyse=0x3:0x133 / me=umh / subme=9 / psy=1 / psy_rd=1.00:0.15 / mixed_ref=1 / me_range=24 / chroma_me=1 / trellis=2 / 8x8dct=1 / cqm=0 / deadzone=21,11 / fast_pskip=1 / chroma_qp_offset=-3 / threads=12 / lookahead_threads=1 / sliced_threads=0 / nr=0 / decimate=1 / interlaced=0 / bluray_compat=0 / constrained_intra=0 / bframes=3 / b_pyramid=2 / b_adapt=2 / b_bias=0 / direct=3 / weightb=1 / open_gop=0 / weightp=2 / keyint=250 / keyint_min=23 / scenecut=40 / intra_refresh=0 / rc_lookahead=60 / rc=2pass / mbtree=1 / bitrate=837 / ratetol=1.0 / qcomp=0.60 / qpmin=0 / qpmax=69 / qpstep=4 / cplxblur=20.0 / qblur=0.5 / vbv_maxrate=13000 / vbv_bufsize=15500 / nal_hrd=none / filler=0 / ip_ratio=1.40 / aq=3:0.80
Default : Yes
Forced : No
Color range : Limited
Color primaries : BT.709

Audio #1
ID : 2
Format : AAC
Format/Info : Advanced Audio Codec
Format profile : LC
Codec ID : A_AAC-2
Duration : 1 h 38 min
Bit rate : 88.9 kb/s
Channel(s) : 2 channels
Channel positions : Front: L R
Sampling rate : 48.0 kHz
Frame rate : 46.875 FPS (1024 SPF)
Compression mode : Lossy
Delay relative to video : 9 ms
Stream size : 62.4 MiB (8%)
Language : English
Default : No
Forced : No

Audio #2
ID : 3
Format : AAC
Format/Info : Advanced Audio Codec
Format profile : LC
Codec ID : A_AAC-2
Duration : 1 h 38 min
Bit rate : 192 kb/s
Channel(s) : 2 channels
Channel positions : Front: L R
Sampling rate : 48.0 kHz
Frame rate : 46.875 FPS (1024 SPF)
Compression mode : Lossy
Stream size : 133 MiB (17%)
Title : By-MAHER
Language : Hindi
Default : Yes
Forced : Yes

Text
ID : 4
Format : UTF-8
Codec ID : S_TEXT/UTF8
Codec ID/Info : UTF-8 Plain Text
Duration : 1 h 29 min
Bit rate : 41 b/s
Count of elements : 777
Stream size : 27.2 KiB (0%)
Default : Yes
Forced : No




Sample Included in Torrent ..!!!



Perfect Sync By MAHER



UNCUT Version



It's PAK Dubbing DTH Audio 1st on Net



Keep Seeding After Download







Files:

Flightplan 2005 x264 720p [Hindi + Eng] BluRay Exclusive By Maher
  • Sample Flightplan 2005 x264 720p [Hindi + Eng] BluRay Exclusive By Maher.mkv (15.2 MB)
  • Flightplan 2005 x264 720p [Hindi + Eng] BluRay Exclusive By Maher.mkv (784.1 MB)

Comments

Code:

  • udp://tracker.coppersurfer.tk:6969/announce
  • udp://thetracker.org:80/announce
  • udp://tracker.coppersurfer.tk:6969/announce
  • udp://tracker.leechers-paradise.org:6969/announce
  • udp://eddie4.nl:6969/announce
  • udp://zer0day.ch:1337/announce
  • udp://tracker.sktorrent.net:6969/announce
  • udp://9.rarbg.me:2800/announce
  • udp://9.rarbg.to:2780/announce
  • udp://torrent.gresille.org:80/announce
  • udp://tracker.aletorrenty.pl:2710/announce
  • udp://tracker.piratepublic.com:1337/announce
  • udp://tracker.opentrackr.org:1337/announce
  • udp://explodie.org:6969/announce
  • udp://tracker.zer0day.to:1337/announce
  • udp://tracker.leechers-paradise.org:6969/announce
  • udp://coppersurfer.tk:6969/announce
  • UDP://TRACKER.LEECHERS-PARADISE.ORG:6969/ANNOUNCE
SitemapSisangian Sihalath | Redbad.2018.720p.BluRay.DD5.1.x264.HuN-No1 | Arte y antigüedades Reality-TV | Houkago Teibo Nisshi - Raw | 02.06 [액션] [한글무설치] FAR CRY 5 Dead Living Zombies ( CODEX )