2 Fast and 2 Furious (2003) 1080p 10bit Bluray x265 HEVC [Org DD ...

  • Category Movies
  • Type Dubs/Dual Audio
  • Language Hindi
  • Total size 2.7 GB
  • Uploaded By McuDudeS
  • Downloads 705
  • Last checked 5 months ago
  • Date uploaded 5 months ago
  • Seeders 0
  • Leechers 2

2 Fast 2 Furious

ActionCrimeThriller

It's a major double-cross when former police officer Brian O'Conner teams up with his ex-con buddy Roman Pearce to transport a shipment of "dirty" money for shady Miami-based import-export dealer Carter Verone. But the guys are actually working with undercover agent Monica Fuentes to bring Verone down.

Infohash : E3BFA18A561FB5B488843708E560A3700D2753A1






2 Fast and 2 Furious (2003) 1080p 10bit Bluray x265 HEVC [Org DD 5.1 Hindi + AAC 5.1 English] ESubs ~ {RoCK-HD-STAr}


Org Untouched DD Plus 5.1 640Kbps Hindi Audio By Punisher {Thanks}





Code:


General
Complete name : 2 Fast and 2 Furious (2003) 1080p 10bit Bluray x265 HEVC [Org DD 5.1 Hindi + AAC 5.1 English] ESubs ~ {RoCK-HD-STAr}.mkv
Format : Matroska
Format version : Version 4 / Version 2
File size : 2.60 GiB
Duration : 1 h 47 min
Overall bit rate : 3 463 kb/s
Movie name : 2 Fast and 2 Furious (2003) 1080p 10bit Bluray x265 HEVC [Org DD 5.1 Hindi + AAC 5.1 English] ESubs---The King Of Entertainment ~ {RoCK-HD-STAr}


Video
ID : 1
Format : HEVC
Format/Info : High Efficiency Video Coding
Format profile : Main [email protected]@Main
Codec ID : V_MPEGH/ISO/HEVC
Duration : 1 h 47 min
Bit rate : 2 477 kb/s
Width : 1 920 pixels
Height : 816 pixels
Display aspect ratio : 2.35:1
Frame rate mode : Constant
Frame rate : 23.976 (24000/1001) FPS
Color space : YUV
Chroma subsampling : 4:2:0
Bit depth : 10 bits
Bits/(Pixel*Frame) : 0.066
Stream size : 1.86 GiB (71%)
Title : {RoCK-HD-STAr}
Default : Yes
Forced : No

Audio #1
ID : 2
Format : AAC
Format/Info : Advanced Audio Codec
Format profile : LC
Codec ID : A_AAC-2
Duration : 1 h 47 min
Bit rate : 339 kb/s
Channel(s) : 6 channels
Channel positions : Front: L C R, Side: L R, LFE
Sampling rate : 48.0 kHz
Frame rate : 46.875 FPS (1024 SPF)
Compression mode : Lossy
Delay relative to video : 20 ms
Stream size : 261 MiB (10%)
Language : English
Default : Yes
Forced : No

Audio #2
ID : 4
Format : E-AC-3
Format/Info : Enhanced Audio Coding 3
Codec ID : A_EAC3
Duration : 1 h 47 min
Bit rate mode : Constant
Bit rate : 640 kb/s
Channel(s) : 6 channels
Channel positions : Front: L C R, Side: L R, LFE
Sampling rate : 48.0 kHz
Frame rate : 187.500 FPS (256 SPF)
Compression mode : Lossy
Delay relative to video : 140 ms
Stream size : 493 MiB (18%)
Title : {RoCK-HD-STAr}
Language : Hindi
Service kind : Complete Main
Default : No
Forced : No

Text
ID : 3
Format : VobSub
Muxing mode : zlib
Codec ID : S_VOBSUB
Codec ID/Info : Picture based subtitle format used on DVDs
Duration : 1 h 40 min
Bit rate : 9 959 b/s
Count of elements : 1241
Stream size : 7.16 MiB (0%)
Title : {RoCK-HD-STAr}
Language : English
Default : No
Forced : No

Menu
00:00:00.000 : en:Chapter 01
00:11:29.647 : en:Chapter 02
00:14:20.818 : en:Chapter 03
00:16:02.294 : en:Chapter 04
00:18:57.344 : en:Chapter 05
00:24:23.378 : en:Chapter 06
00:28:16.820 : en:Chapter 07
00:35:13.903 : en:Chapter 08
00:40:08.322 : en:Chapter 09
00:46:44.384 : en:Chapter 10
00:58:54.906 : en:Chapter 11
01:05:02.857 : en:Chapter 12
01:10:25.304 : en:Chapter 13
01:13:37.746 : en:Chapter 14
01:22:15.639 : en:Chapter 15
01:29:54.138 : en:Chapter 16
01:35:17.628 : en:Chapter 17
01:37:32.888 : en:Chapter 18
01:40:32.693 : en:Chapter 19













Files:

2 Fast and 2 Furious (2003) 1080p 10bit Bluray x265 HEVC [Org DD 5.1 Hindi + AAC 5.1 English] ESubs ~ {RoCK-HD-STAr}
  • 2 Fast and 2 Furious (2003) 1080p 10bit Bluray x265 HEVC [Org DD 5.1 Hindi + AAC 5.1 English] ESubs ~ {RoCK-HD-STAr}.mkv (2.6 GB)
  • (Sample) 2 Fast and 2 Furious (2003) 1080p 10bit Bluray x265 HEVC [Org DD 5.1 Hindi + AAC 5.1 English] ESubs ~ {RoCK-HD-STAr}.mkv (86.6 MB)
  • Exclusive Offer {www.quickrdp.com} !READ THIS!.txt (0.0 KB)
  • Encoded By {RoCK-HD-STAr}.txt (0.0 KB)

There are currently no comments. Feel free to leave one :)

Code:

  • udp://tracker.coppersurfer.tk:6969/announce
  • udp://tracker.open-internet.nl:6969/announce
  • udp://exodus.desync.com:6969/announce
  • udp://tracker.opentrackr.org:1337/announce
  • udp://tracker.internetwarriors.net:1337/announce
  • udp://9.rarbg.to:2710/announce
  • udp://public.popcorn-tracker.org:6969/announce
  • udp://tracker.vanitycore.co:6969/announce
  • udp://mgtracker.org:6969/announce
  • udp://tracker.tiny-vps.com:6969/announce
  • udp://tracker.cypherpunks.ru:6969/announce
  • udp://tracker.torrent.eu.org:451/announce
  • udp://thetracker.org:80/announce
  • udp://open.stealth.si:80/announce
  • udp://bt.xxx-tracker.com:2710/announce
  • http://retracker.telecom.by:80/announce
  • udp://retracker.lanta-net.ru:2710/announce
  • http://tracker.city9x.com:2710/announce
  • udp://tracker.uw0.xyz:6969/announce
  • udp://tracker.kamigami.org:2710/announce
Sitemapépisode 3 Búho/Muwan | gamer girl | Eps18 Twin Peaks - Season 3 Foreign Language | Suspense | فونت